1. Этот сайт использует файлы cookie. Продолжая пользоваться данным сайтом, Вы соглашаетесь на использование нами Ваших файлов cookie. Узнать больше.

Видеофайл чем открыть?

Тема в разделе "Софт", создана пользователем academic, 08.10.20.

  1. academic

    academic Активный участник

    11.448
    402
    Кто работает с видеокамерами, в чём может быть подвох?
    Камера пишет, передаётся на регистратор, с регистратора "оператор" забирает файлы себе на комп, и... видеофайл НЕ воспроизводится. Открывается проигрыватель, и НЕ воспроизводит. Если пожмакать по шкале времени, то картинка есть, но воспроизведение НЕ происходит.
    Файл вроде обычный, avi. Компы на которых пытались воспроизводить разные, кодеки, проигрыватели тоже разные - эффект одинаков.
    Медиаинфо из клайткодек пака выдаёт такую инфу
    General
    Complete name :\20201006092008_20201006093009.avi
    Format : AVI
    Format/Info : Audio Video Interleave
    File size : 74.8 MiB
    Duration : 8 min 39 s
    Overall bit rate : 1 208 kb/s
    Writing application : Lavf55.48.100

    Video
    ID : 0
    Format : hev1
    Codec ID : hev1
    Duration : 8 min 39 s
    Bit rate : 1 204 kb/s
    Width : 2 592 pixels
    Height : 1 944 pixels
    Display aspect ratio : 4:3
    Frame rate : 20.000 FPS
    Bits/(Pixel*Frame) : 0.012
    Stream size : 74.6 MiB (100%)

    Audio
    ID : 1
    Format : PCM
    Format settings : Little / Signed
    Codec ID : 1
    Duration : 8 min 39 s
    Bit rate mode : Constant
    Bit rate : 128 kb/s
    Channel(s) : 1 channel
    Sampling rate : 8 000 Hz
    Bit depth : 16 bits
    Stream size : 7.93 MiB (11%)
    Alignment : Aligned on interleaves
     
  2. academic

    academic Активный участник

    11.448
    402
    всё разрешилось. плеер GOM воспроизводит данный кодек видеофайла.
     
  3. Overlord

    Overlord Активный участник

    1.005
    11
    Это Х265, последний к-лайт открывает
     
  4. academic

    academic Активный участник

    11.448
    402
    ставил с сайта - не открывает
     
  5. Deceiver

    Deceiver Активный участник

    17.348
    3.947
    такое разрешение мало кто откроет

    какое то нестандартное, да ещё 4:3 ...
     
  6. muhon

    muhon Активный участник

    1.522
    25
    Это что за грешный поток? Хто его генерирует? Микроскоп или хабл)
     
  7. 027

    027 Активный участник

    4.107
    822
     
  8. muhon

    muhon Активный участник

    1.522
    25
    Да понятно, что не стенаграфистка
    Ещё бы фокусное расстояние объектива, так, из любопытства
     
  9. Mavrick

    Mavrick Активный участник

    2.077
    116
    @academic , ломились в открытую дверь, нужно скачать с сайта производителя регистратора плеер, это вам повезло, что avi, чаще всего файлы вообще без расширения
     
  10. mirsoft

    mirsoft Активный участник

    978
    21
    AIMP, AV, BS.Player, Comboplay, KMPlayer, MKV Player, ProgDBV7, VLC и т.д. Это так, на вскидку. У меня открываются все видеофайлы каким-нибудь из этих. А еще есть онлайновые декодеры.
     
    Последнее редактирование: 11.10.20
  11. academic

    academic Активный участник

    11.448
    402
    так же пробовал на вскидку
     
  12. dsv

    dsv Активный участник

    12.883
    1.170
    это хто такие?
     
  13. mirsoft

    mirsoft Активный участник

    978
    21
    Вариант 1. yandex "online decoder video"
    Вариант 2. vlc mediaplayer -> "Save as..."
     
  14. 027

    027 Активный участник

    4.107
    822
    AVI — это всего лишь контейнер, внутри которого может быть, что угодно. Если плеер не умеет декодировать hev1, хрен вам по всей морде, а не кино про жуликов.